#TITLE:Uncle Fucker;
#SUBTITLE:;
#ARTIST:Terrance and Phillip (South Park);
#TITLETRANSLIT:;
#SUBTITLETRANSLIT:;
#ARTISTTRANSLIT:;
#CREDIT:;
#BANNER:Uncle Fucker.png;
#BACKGROUND:Uncle Fucker-bg.png;
#LYRICSPATH:;
#CDTITLE:;
#MUSIC:Uncle Fucker.mp3;
#OFFSET:-7.380;
#SAMPLESTART:8.740;
#SAMPLELENGTH:30.000;
#SELECTABLE:YES;
#BPMS:0.000=175.000;
#STOPS:86.500=1.100
;
#BGCHANGES:;
// cache tags:
#FIRSTBEAT:0.000;
#LASTBEAT:180.000;
#SONGFILENAME:Songs/Music V.I.P ^_^/Uncle F^cker/Uncle Fucker.sm;
#HASMUSIC:1;
#HASBANNER:1;
#MUSICLENGTH:71.053;
// end cache tags

//---------------dance-single - Heavy----------------
#NOTES:
     dance-single:
     Heavy:
     Hard:
     7:
     0.543,0.472,0.113,0.535,0.028,224.000,8.000,38.000,0.000,2.000:
0000
0000
0000
0000
,
1000
1000
0100
0100
0020
0000
0030
0001
,
1000
0200
0002
0000
0303
0000
0000
0001
,
0100
0001
0001
1000
0100
0010
0010
0001
,
1000
0200
0002
0000
0303
0000
0000
0010
,
0001
1000
0100
0010
0001
0100
0010
2000
,
0000
0000
3000
0010
0001
0010
1000
0000
0100
0000
0010
0000
0001
0000
1000
0000
,
0010
0000
0100
0010
1000
0100
0010
0000
,
0001
0100
0020
2000
0000
3030
0000
0000
,
0010
0100
0010
0001
0010
1000
0010
0001
,
1000
0001
0020
2000
0000
3030
0000
0000
,
0000
0000
0000
1000
0010
0000
0100
0000
1000
0000
0100
0000
0010
0000
0100
0000
,
0100
0000
0100
0000
0000
0010
0001
0000
0100
0000
0010
0000
1000
0000
0010
0000
,
0100
0001
0000
0000
0000
0000
0000
0000
,
0000
0000
0000
0000
0000
1000
1000
0100
,
0010
0000
0000
0000
0000
0001
0001
0100
,
0020
0000
0130
0000
0000
1000
0100
0000
,
0001
0100
0010
0000
0000
1000
1000
0100
,
0020
0000
0130
0000
0000
0001
0001
2000
,
0000
3000
0010
0002
0003
0000
1000
1000
,
0000
0001
0001
2000
3000
0000
0000
0000
,
0000
0000
0000
0000
0000
2002
3003
0000
,
1000
0010
0010
0001
0100
0011
0000
0000
,
0010
0100
0001
1000
0020
0000
0130
0000
,
0100
0001
0010
1000
1000
0010
1010
0000
,
1000
0100
0100
0010
0100
0000
0000
0000
,
0000
0001
1000
0010
0100
0010
0001
0000
,
0000
0100
0100
0010
1000
0100
0001
1100
,
0000
0001
0010
0011
0100
1000
0001
0010
,
0010
0100
0100
0000
0000
0010
0010
0000
,
0100
0100
0010
0010
1000
1000
0001
0001
,
0000
0010
0010
0000
0000
0100
0100
0000
,
0000
2002
0000
0000
0000
0000
0000
3003
,
0000
0000
0010
1000
0100
0001
0100
0001
,
0010
1000
0020
0200
0000
0330
0000
0000
,
0001
0100
0010
1000
1000
0100
0010
0001
,
0001
0010
0100
0002
0200
0000
0303
0000
,
0000
0010
0010
0100
0001
0001
1000
0100
,
1000
0010
0000
1000
0001
0100
0010
0010
,
0100
1000
0000
0000
0000
0000
1000
0001
,
2000
0200
3300
0020
,
0002
0033
2000
0000
3200
0000
0320
0000
,
0032
0000
0223
0000
2332
0000
3003
0010
,
0100
0002
2000
0000
0000
0000
0000
0000
,
0000
0000
0000
3003
;

//---------------dance-single - Challenge----------------
#NOTES:
     dance-single:
     Challenge:
     Challenge:
     8:
     0.619,0.602,0.366,0.605,0.035,238.000,26.000,43.000,0.000,8.000:
2000
0000
3002
0000
0103
0100
0010
0010
,
1000
0001
0100
1000
0020
0000
0030
0100
,
0010
0200
0002
0000
0000
0303
0000
0001
,
0100
0001
0010
1000
0100
0010
0100
0001
,
1000
0200
0002
0000
0000
0303
0000
0010
,
0001
1000
0100
0010
0001
0100
0010
1000
,
0000
0000
0000
0010
0001
0010
1000
0000
0100
0000
0010
0000
0001
0000
1000
0000
,
0010
0000
0100
0010
1000
0100
0010
0000
,
0001
0100
0020
2000
0000
0000
3030
0000
,
0010
0100
0010
0001
0100
1000
0010
0001
,
1000
0001
0020
2000
0000
0000
3030
0000
,
0000
0000
0000
1000
0010
0000
0100
0000
1000
0000
0100
0000
0010
0000
0100
0000
,
1000
0000
0010
0000
0000
0010
0001
0000
0100
0000
0010
0000
1000
0000
0010
0000
,
0100
0001
0000
0000
2000
0000
3200
0000
,
0322
0000
0033
0000
0000
1000
1000
0100
,
0010
0000
1001
0000
0000
0001
0001
0100
,
0020
0000
0130
0000
0000
1000
0100
0000
,
0001
0100
0010
0000
0000
1000
1000
0100
,
0020
0000
0130
0000
0000
0001
0001
2000
,
0000
3000
0010
0002
0003
0000
1001
1001
,
0000
0110
0110
2000
3000
0000
0000
0000
,
0000
0000
0000
0000
0000
2012
3003
0000
,
1000
0010
0010
0001
0100
0011
0000
0000
,
0010
0100
0001
1000
0020
0000
0130
0000
,
0100
0001
0010
1000
1000
0010
1010
0000
,
1000
0100
0100
0010
0100
0000
0000
0000
,
0000
0001
1000
0010
0100
0010
0001
0000
,
0000
0100
0100
0010
1000
0100
0001
1100
,
0000
0001
0010
0011
0100
1000
0001
0010
,
0010
1100
1100
0000
0000
0011
0011
0000
,
0100
0100
0010
0010
1000
1000
0001
0001
,
0000
0011
0011
0000
0000
1100
1100
0000
,
0000
2002
0000
0000
0000
0000
0000
3003
,
0000
0000
0010
1000
0100
0001
0100
0001
,
0010
1000
0020
0200
0000
0000
0330
0000
,
0001
0100
0010
1000
0001
0100
0010
0001
,
1000
0010
0100
0002
0200
0000
0000
0303
,
0000
0010
1000
0100
0001
0010
1000
0100
,
1000
0000
0010
0000
0000
0100
1000
0000
0001
0000
0100
0000
0010
0000
0001
0000
,
0100
1000
0000
0000
0000
0000
0010
0001
,
2000
0200
3300
0020
,
0002
0033
2010
0000
3201
0000
1320
0000
,
0132
0000
0223
0000
2332
0000
3003
0010
,
0100
0002
2000
0000
0000
0000
0000
0000
,
0000
0000
0000
0000
0000
0000
3013
0100
,
0001
0000
0000
0000
;
